Main Privacy Policy DMCA Contacts
» » Rosie - Last Dance

Rosie - Last Dance Album Mp3

Rosie - Last Dance Album Mp3
Performer: Rosie
Title: Last Dance
Genre: Rock / Pop
Style:Pop Rock, Vocal
Released: 1977
MP3 album szie: 1013 mb
FLAC album size: 1764 mb

Tracklist

Dancin' On Rivers3:02
There's A Song In It Somewhere2:55
The Words Don't Matter3:32
The Angel In Me4:06
Mississippi Baby3:19
I See Home4:01
Out Of Pawn5:09
Run That Movie Back4:17
Last Dance Of Summer3:29
Missin'4:13
Back On The Street Again5:25

Versions

CategoryArtistTitle (Format)LabelCategoryCountryYear
APL1-2415Rosie Last Dance ‎(LP, Album)RCA VictorAPL1-2415US1977
COOL-038Rosie Last Dance +4 ‎(CD, Album, RE, RM)Cool SoundCOOL-038Japan1999
SICP-5483Rosie Last Dance ‎(CD, Album, Ltd, RE, RM)RCASICP-5483Japan2017

Short intro

Listen free to Rosie Last Dance The Words Don't Matter, Back On The Street Again and more. 11 tracks 45:59. LAST DANCE album. 50 видео Воспроизвести все Микс Last Dance Of Summer Rosie . Last Dance. Last Dance of Summer. Angel in Me. Discover all of this album's music connections, watch videos, listen to music, discuss and Ledet born October 25, 1971, Mary Roszela Bellard in Church Point, Louisiana, USA is an American Creole Zydeco accordion player and singer. Her songs are known for their sultry and suggestive lyrics. She tours and records with her band, the Zydeco Playboys. Raised in rural Louisiana, Ledet listened to rock music in her youth. Although she was in an environment where zydeco was heard, she took little interest in the music at the time. She first became fascinated with zydeco music when she was. Cover information about the songs on the release Last Dance by Rosie: who covered the songs, who sang the . Last min tix available: ROSIE Day Party ft. Laura King Spacey Space - Glamorama. ROSIE - In Wonderland. 220 Photos. November 6, 2019 . The countdown is on This Saturday. 50 online tickets left: ROSIE Day Party ft. ROSIE is with Jake Spaseski and 14 others. ROSIE - Penthouse Day Party. Dance 1,691 people. October 28, 2018 . Rosie Format: Vinyl. Your name here. 5 star 0. This is a new, unopened CD in its original With Me - Young Rosie. Лента с персональными рекомендациями и музыкальными новинками, радио, подборки на любой вкус, удобное управление своей коллекцией

About Performer

Listen to music from Rosie like Angel Baby, Forget Your Name & more. Find the latest tracks, albums, and images from Rosie. Learn more. Recent Listening Trend. Rosie - Music, Sligo, Ireland. Vocalist and Musician based in Booking enquiries to rosieconnollymusic - American Vybe. Лента с персональными рекомендациями и музыкальными новинками, радио, подборки на любой вкус, удобное управление своей коллекцией. Rosie off John Mayer's album 'The Search for Everything' is available now. 2019 Live at Parkpop. Liquid Blue. Visual Visions, Rosie, Last Word. 2019 сингл. American Music Library: The Hits of 1960. Various artists. Doo Wop Chart Busters, Vol. Fairport Convention. Rosie Flores is a rockabilly and country music artist. Her discography consists of 13 studio albums, 2 compilations, and 9 singles. In addition, she has been featured as a performer and composer on numerous albums by other artists. 1985: various artists - A Town South of Bakersfield Enigma - track 1, Heartbreak Train with Albert Lee. Rosie Romero. 2017 сингл. House Music. Rosie Romero & Ian Round. 2013 сингл. The Best Of 2012 New Year Compilation. Город: 33 songs from the Love, Rosie 2015 movie soundtrack, with scene descriptions. Listen to and download the music, ost, score, list of songs and trailers. 5 Feb 2015. Love, Rosie. Complete List of Songs. Time Played

Tell friends!

Related to Rosie - Last Dance
Reviews: (1)
Vizil
Vizil
foobar2000 1.3.17 / Dynamic Range Meter 1.1.1
log date: 2018-08-23 19:56:13

--------------------------------------------------------------------------------
Analyzed: Rosie / Last Dance [JP 1999 CD]
--------------------------------------------------------------------------------

DR Peak RMS Duration Track
--------------------------------------------------------------------------------
DR11 -0.10 dB -13.61 dB 3:35 01-The Words Don't Matter
DR9 -0.10 dB -11.79 dB 6:05 02-Back On The Street Again
DR8 -0.10 dB -11.38 dB 5:15 03-Out Of Pawn
DR9 -0.10 dB -10.81 dB 3:00 04-There's A Song In It Somewhere
DR9 -0.10 dB -11.05 dB 3:58 05-Last Dance Of Summer
DR8 -0.10 dB -10.48 dB 4:17 06-The Angel In Me
DR8 -1.10 dB -10.83 dB 4:47 07-Missin'
DR9 -0.10 dB -11.44 dB 3:24 08-Mississippi Baby
DR8 -0.10 dB -10.01 dB 3:04 09-Dancin' On Rivers
DR9 -1.00 dB -11.67 dB 4:22 10-Run That Movie Back
DR9 -0.10 dB -11.26 dB 4:12 11-I See Home
DR10 -0.10 dB -12.81 dB 4:20 12-The Words Don't Matter (Extra)
DR11 -0.10 dB -13.45 dB 4:07 13-The Angel In Me (Extra)
DR10 -0.10 dB -13.00 dB 2:54 14-There's A Song In It Everywhere (Extra)
DR10 -0.10 dB -13.43 dB 3:49 15-Back On The Street (Extra)
--------------------------------------------------------------------------------

Number of tracks: 15
Official DR value: DR9

Samplerate: 44100 Hz
Channels: 2
Bits per sample: 16
Bitrate: 852 kbps
Codec: ALAC
================================================================================