Main Privacy Policy DMCA Contacts
» » Zyanose - Loveless

Zyanose - Loveless Album Mp3

Zyanose - Loveless Album Mp3
Performer: Zyanose
Title: Loveless
Genre: Rock
Style:Hardcore, Noise, Punk
Released: 2008
MP3 album szie: 1486 mb
FLAC album size: 1590 mb

Tracklist

Voice Of Youth
Future
Media
Loathe
Parasite

Versions

CategoryArtistTitle (Format)LabelCategoryCountryYear
CRUST WAR-033, crust war-33Zyanose Loveless ‎(7")Crust War, Crust WarCRUST WAR-033, crust war-33Japan2008
DTAKT108Zyanose Loveless ‎(7", Ltd, RE, Tra)D-Takt & Råpunk RecordsDTAKT108Sweden2019
DTAKT108.2019, DTAKT108Zyanose Loveless ‎(7", RE)D-Takt & Råpunk Records, D-Takt & Råpunk RecordsDTAKT108.2019, DTAKT108Sweden2019

Short intro

Zyanose - Loveless EP 2009. Loveless is the second studio album by English-Irish rock band My Bloody Valentine. It was released on 4 November 1991 in the United Kingdom by Creation Records and in the United States by Sire Records. The album was recorded between February 1989 and September 1991, with vocalist and guitarist Kevin Shields leading sessions and experimenting with guitar vibrato techniques, tuning systems, samplers, and meticulous production methods. The band cycled through nineteen different studios and several. Listen free to Zyanose Loveless Future, Parasite and more. 5 tracks . Лента с персональными рекомендациями и музыкальными новинками, радио, подборки на любой вкус, удобное управление своей коллекцией. Исполнитель: Japancakes. 2007 rock. For The Loveless Lonely Nights 2010 Re-release - Saturnus. Japancakes - Loveless 2007. To favorites 0 Download album. Listen album. Indie Rock Shoegaze. Songs in album Japancakes - Loveless 2007. Japancakes - Only Shallow. loveless EP From Zyanose - Enjoy all the music albums and top video tracks of Zyanose here on Frogtoon Music. Video Tracks include: Gluttony, Never, INR, Dance disorder, Future, Druge and Slave, Parasite, Media, Greed, Wrath, and much more. Zyanose is an overly distorted and noisy Japanese hardcore punk band, inspired heavily by Confuse. It is believed the band formed in 2002 - although in a 2008 interview Distort Hackney Fanzine, December 2008 the band stated that the date of formation was actually 2007. Zynaose includes members from Defector, and members also play, stand-in for other Tokyo Konton bands. Zyanose New York's Alright 35mm RAWPUNK NOISE. 164 notes. zyanose I Hate Working. 165 notes. 135 notes. 132 notes. I feel like I could listen to this album everyday. is a masterpiece. zyanose loveless punk music. 8 notes. Check out our loveless selection for the very best in unique or custom, handmade pieces from our prints shops. Shop these results for loveless and support Etsy's one-of-a-kind creative from Wormrots album Dirge. Event Posters Movie Posters Punks Not Dead Loveless Osaka Gemini Mad Darth Vader Japan. Zyanose - Loveless ep - 2009. Japan's Zyanose with 4 tracks of noisy chaos punk on the A-Side and then they throw a spanner in the works with a 7 minute long track on t. Boys Mohawk Punk Guys Punk Subculture Boy Cuts Punk Rock Boy Or Girl Goth London Hair Styles. London Punks

About Performer

Listen to music from Zyanose like Never, OPTION FOR THE FOOL & more. Find the latest tracks, albums, and images from Zyanose. Zyanose is an overly distorted and noisy Japanese hardcore punk band, inspired heavily by Confuse. It is believed the band formed in 2002 - although in a 2008 interview Distort Hackney Fanzine, December 2008 the band stated that the date of formation was actually 2007. Zynaose includes memb read more. If you are the rightful owner of the songs, eps, ect. and don't want . Option for the Fool. Death in Peace. Noise Philia 2005-2011. Performer - Benjamin Lerner. Лента с персональными рекомендациями и музыкальными новинками, радио, подборки на любой вкус, удобное управление своей коллекцией. This is a list of notable African-American singers that gives their year of birth and music genres with which they are associated. Akon born 1976: hip hop. Aaliyah 19792001: R&B, pop. Gregory Abbott born 1954: soul, R&B, his father was born in Venezuela. Marian Anderson 18971993: opera. Louis Armstrong 19011971: jazz. Martina Arroyo born 1936: opera. Belcalis Marlenis Almanzar born 1992: hip hop. Erykah Badu born 1971: neo soul, R&B, funk, hip-hop. Mildred Bailey 19071951: jazz. TRACK 06 AUDIO TITLE Envy PERFORMER Zyanose FLAGS DCP INDEX 01 00:00:00FILE 07 - WAVE TRACK 07 AUDIO TITLE Pride PERFORMER Zyanose FLAGS DCP INDEX 01 00:00:00FILE 08 - WAVE TRACK 08 AUDIO TITLE Sloth PERFORMER Zyanose FLAGS DCP INDEX 01 00:00:00FILE 09 WAVE TRACK 09 AUDIO TITLE . Info Zyanose- Insane Noise Raid LP. Osakas distortion masters Zyanose have been creating the most blown out, ear piercing noise to come out of Japan in the past 10 years. Zyanose play a great style of distorted, blown out, bass heavy music that. Just a Performer. Frank V, Mister D, Kas. Download and listen online The Performer by James Righton. Genre - Indie Rock. Duration 04:17. Format mp3. On this page you can download song James Righton - The Performer in mp3 and listen online. Indie Rock Indie Pop. James Righton. The Performer. A wide variety of music performer options are available to you, such as oem service, in-stock items. You can also choose from women, men, and girls music performer, as well as from adults, children music performer. There are 2,193 suppliers who sells music performer on , mainly located in Asia. The top countries of suppliers are China, Taiwan, China, and Hong Kong . from which the percentage of music performer supply is 98, 1, and 1 respectively. The more people enjoy music, the more similar their brain activity is to that of the musician. By Robert Martone on June 2, 2020. أعرض هذا باللغة العربية. A new paper in the journal NeuroImage has shown that this synchrony can be seen in the brain activities of the audience and performer. And the greater the degree of synchrony, the study found, the more the audience enjoys the performance. This result offers insight into the nature of musical exchanges and demonstrates that the musical experience runs deep: we dance and feel the same emotions together, and our neurons fire together as well